The Falicia Blakely Story Movie Download Torrent

Posted on

When.Love.Kills.The.Falicia.Blakely.Story.2017.720p.HDTV.x264-NoRBiT

](https://www.sparrowpics.com/image/kbFon)

**Complete name : When.Love.Kills.The.Falicia.Blakely.Story.2017.720p.HDTV.x264-NoRBiT.mkv
Format : Matroska
Format version : Version 2
File size : 2.00 GiB
Duration : 1 h 23 min
Overall bit rate : 3 443 kb/s
Writing application : HandBrake 0.9.8
Writing library : libmkv 0.6.5

The Felicia Blakely Story Movie Download Torrent Download

App download game free pc. Video
ID : 1
Format : AVC
Format/Info : Advanced Video Codec
Format profile : [[email protected]
Format settings, CABAC : Yes
Format settings, ReFrames : 5 frames
Codec ID : VMPEG4/ISO/AVC
Duration : 1 h 23 min
Bit rate : 2 990 kb/s
Width : 1 280 pixels
Height : 720 pixels
Display aspect ratio : 16:9
Frame rate mode : Constant
Frame rate : 23.976 (24000/1001) FPS
Color space : YUV
Chroma subsampling : 4:2:0
Bit depth : 8 bits
Scan type : Progressive
Bits/(Pixel*Frame) : 0.135
Stream size : 1.73 GiB (87%)
Writing library : x264 core 120
Encoding settings : cabac=1 / ref=5 / deblock=1:0:0 / analyse=0x3:0x113 / me=umh / subme=7 / psy=1 / psy
rd=1.00:0.00 / mixedref=1 / merange=16 / chromame=1 / trellis=1 / 8x8dct=1 / cqm=0 / deadzone=21,11 / fastpskip=1 / chromaqpoffset=-2 / threads=6 / slicedthreads=0 / nr=0 / decimate=1 / interlaced=0 / bluraycompat=0 / constrainedintra=0 / bframes=3 / bpyramid=2 / badapt=1 / bbias=0 / direct=1 / weightb=1 / opengop=0 / weightp=2 / keyint=240 / keyintmin=24 / scenecut=40 / intrarefresh=0 / rclookahead=50 / rc=crf / mbtree=1 / crf=17.0 / qcomp=0.60 / qpmin=3 / qpmax=69 / qpstep=4 / ip_ratio=1.40 / aq=1:1.00
Language : English
Default : Yes
Forced : No
Color range : Limited
Color primaries : BT.709
Transfer characteristics : BT.709
Matrix coefficients : BT.709

Audio
ID : 2
Format : AC-3
Format/Info : Audio Coding 3
Format settings, Endianness : Big
Codec ID : A_AC3
Duration : 1 h 23 min
Bit rate mode : Constant
Bit rate : 384 kb/s
Channel(s) : 6 channels
Channel positions : Front: L C R, Side: L R, LFE
Sampling rate : 48.0 kHz
Frame rate : 31.250 FPS (1536 spf)
Bit depth : 16 bits
Compression mode : Lossy
Stream size : 228 MiB (11%)
Language : English
Service kind : Complete Main
Default : Yes
Forced : No

Text
ID : 3
Format : UTF-8
Codec ID : S_TEXT/UTF8
Codec ID/Info : UTF-8 Plain Text
Language : English
Default : No
Forced : No**


More at ibit.to
And ibit.uno

The Falicia Blakely Story Movie Download Torrent Full

Editorial Reviews. About the Author. Sereniti Hall is an urban fiction author who pulls her. Download it once and read it on your Kindle device, PC, phones or tablets. The story that inspired the T.V ONE movie, 'When Love Kills'. Many years ago, Falicia Blakely, a teenage mother fell in love with a vicious pimp, who. Movies / When Love Kills: The Falicia Blakely Story; When Love Kills: The Falicia Blakely Story “Hit A Lick,” tells the tragic story of Falicia Blakely, a teen mom who grows up in the fast-lane. When she becomes an exotic dancer, she attracts the attention of local pimp and predator. 'Hit A Lick,' tells the tragic story of Falicia Blakely, a teen mom who grows up in the fast-lane. When she becomes an exotic dancer, she attracts the attention of local pimp and predator, Dino. “Hit A Lick,” tells the tragic story of Falicia Blakely, a teen mom who grows up in the fast-lane. When she becomes an exotic dancer, she attracts the attention of local pimp and predator, Dino.

The felicia blakely story

The Felicia Blakely Story Movie Download Torrent Full


The Felicia Blakely Story Movie Download Torrent 2017

And ibit.ws